Toplam 4 adet sonuctan sayfa basi 1 ile 4 arasi kadar sonuc gösteriliyor
Like Tree1Likes
  • 1 Post By FilmZevki

Konu: Prison Break - 1.Sezon 720p BluRay DTS [TR-EN] x264

  1. #1
    SİTE ADMİNİ FilmZevki - ait Kullanıcı Resmi (Avatar)
    Üyelik tarihi
    05 Nisan 2017
    Mesajlar
    36,754
    Beğendikleri
    158,399
    Beğenileri
    96,056
    Time Online
    7 Months 2 Weeks 2 Days 20 Hours 42 Minutes 31 Seconds
    Avg. Time Online
    23 Hours 30 Minutes 15 Seconds
    Tecrübe Puanı
    10

    Standart Prison Break - 1.Sezon 720p BluRay DTS [TR-EN] x264




    [Ziyaretçi/Linkleri görebilmek için lütenÜye olun]


    Tür: Aksiyon, Suç, Dram







    Kod:
    Complete name               : Prison Break s01e01 720p BluRay DD5.1 x264 Dual [TR-EN].mkv
    Format                      : Matroska
    Format version              : Version 4
    File size                   : 2.24 GiB
    Duration                    : 43 min 41 s
    Overall bit rate            : 7 328 kb/s
    Writing application         : mkvmerge v31.0.0 ('Dolores In A Shoestand') 64-bit
    Writing library             : libebml v1.3.6 + libmatroska v1.4.9
    
    
    Video
    ID                          : 1
    Format                      : AVC
    Format/Info                 : Advanced Video Codec
    Format profile              : High@L3.1
    Format settings             : CABAC / 3 Ref Frames
    Format settings, CABAC      : Yes
    Format settings, ReFrames   : 3 frames
    Format settings, GOP        : M=1, N=12
    Codec ID                    : V_MPEG4/ISO/AVC
    Duration                    : 43 min 41 s
    Bit rate                    : 6 666 kb/s
    Width                       : 1 280 pixels
    Height                      : 720 pixels
    Display aspect ratio        : 16:9
    Frame rate mode             : Constant
    Frame rate                  : 30.000 FPS
    Color space                 : YUV
    Chroma subsampling          : 4:2:0
    Bit depth                   : 8 bits
    Scan type                   : Progressive
    Bits/(Pixel*Frame)          : 0.241
    Stream size                 : 2.02 GiB (90%)
    Writing library             : x264 core 148
    Encoding settings           : cabac=1 / ref=3 / deblock=1:0:0 / analyse=0x3:0x113 / me=hex / subme=7 / psy=1 / psy_rd=1.00:0.00 / mixed_ref=1 / me_range=16 / chroma_me=1 / trellis=1 / 8x8dct=1 / cqm=0 / deadzone=21,11 / fast_pskip=1 / chroma_qp_offset=-2 / threads=1 / lookahead_threads=1 / sliced_threads=0 / nr=0 / decimate=1 / interlaced=0 / bluray_compat=0 / constrained_intra=0 / bframes=0 / weightp=2 / keyint=12 / keyint_min=1 / scenecut=40 / intra_refresh=0 / rc_lookahead=12 / rc=abr / mbtree=1 / bitrate=6666 / ratetol=1.0 / qcomp=0.60 / qpmin=0 / qpmax=51 / qpstep=4 / ip_ratio=1.40 / aq=1:1.00
    Language                    : English
    Default                     : Yes
    Forced                      : No
    
    
    Audio #1
    ID                          : 2
    Format                      : AAC LC
    Format/Info                 : Advanced Audio Codec Low Complexity
    Codec ID                    : A_AAC-2
    Duration                    : 43 min 41 s
    Bit rate                    : 320 kb/s
    Channel(s)                  : 6 channels
    Channel layout              : C L R Ls Rs LFE
    Sampling rate               : 48.0 kHz
    Frame rate                  : 46.875 FPS (1024 SPF)
    Compression mode            : Lossy
    Delay relative to video     : -43 ms
    Stream size                 : 100 MiB (4%)
    Language                    : English
    Default                     : No
    Forced                      : No
    
    
    Audio #2
    ID                          : 3
    Format                      : AC-3
    Format/Info                 : Audio Coding 3
    Commercial name             : Dolby Digital
    Codec ID                    : A_AC3
    Duration                    : 43 min 40 s
    Bit rate mode               : Constant
    Bit rate                    : 384 kb/s
    Channel(s)                  : 6 channels
    Channel layout              : L R C LFE Ls Rs
    Sampling rate               : 48.0 kHz
    Frame rate                  : 31.250 FPS (1536 SPF)
    Bit depth                   : 16 bits
    Compression mode            : Lossy
    Delay relative to video     : -43 ms
    Stream size                 : 120 MiB (5%)
    Language                    : Turkish
    Service kind                : Complete Main
    Default                     : Yes
    Forced                      : No
    
    
    Text
    ID                          : 4
    Format                      : UTF-8
    Codec ID                    : S_TEXT/UTF8
    Codec ID/Info               : UTF-8 Plain Text
    Duration                    : 41 min 55 s
    Bit rate                    : 66 b/s
    Count of elements           : 465
    Stream size                 : 20.4 KiB (0%)
    Language                    : Turkish
    Default                     : Yes
    Forced                      : No
    **Gizli İçerik: içeriği görmek için cevap yaz**
    nItRo likes this.
    cieszyä ‡ ~> File Fabryka ™ | Szybka Gator | Przeå> lijun zrobić <~ cieszyä ‡
    A $ AP
    FilmZevki (27.Mart.2019),nItRo (27.Mart.2019) Bunu beğendi

     

    Paylaş

  2. #2
    Dcrg Üyesi alipi - ait Kullanıcı Resmi (Avatar)
    Üyelik tarihi
    12 Aralık 2018
    Mesajlar
    53
    Beğendikleri
    5
    Beğenileri
    49
    Time Online
    7 Months 3 Weeks 1 Day 10 Hours 16 Minutes 40 Seconds
    Avg. Time Online
    1 Day
    Tecrübe Puanı
    1

    Standart

    teşeurelr ocam

     

    Paylaş

  3. #3
    Dcrg Üyesi kralonur814 - ait Kullanıcı Resmi (Avatar)
    Üyelik tarihi
    18 Temmuz 2019
    Mesajlar
    21
    Beğendikleri
    1
    Beğenileri
    7
    Time Online
    18 Hours 42 Minutes 15 Seconds
    Avg. Time Online
    36 Minutes 49 Seconds
    Tecrübe Puanı
    0

    Standart

    adamsınız ya kaliteli ve çift dil

     

    Paylaş

  4. #4
    Dcrg Üyesi isperih - ait Kullanıcı Resmi (Avatar)
    Üyelik tarihi
    09 Ağustos 2019
    Mesajlar
    7
    Beğendikleri
    0
    Beğenileri
    3
    Time Online
    5 Days 18 Hours 50 Minutes 55 Seconds
    Avg. Time Online
    18 Hours 7 Minutes 16 Seconds
    Tecrübe Puanı
    0

    Standart

    teşekkürler. sağ olun

     

    Paylaş

Bookmarks

Yetkileriniz

  • Konu Acma Yetkiniz Yok
  • Cevap Yazma Yetkiniz Yok
  • Eklenti Yükleme Yetkiniz Yok
  • Mesajınızı Değiştirme Yetkiniz Yok
  •  
YASAL UYARI
Web Sitemizden indirmiş olduğunuz filmler tamamen tanıtım amaçlıdır. Her yapımcı şirket tarafından kendi isimleriyle tescillidir. Bu dosyalar size tanıtım amaçlı sunulmaktadır. Bu dosyaları bilgisayarınızda 24 saatten fazla tutmanız T.C. yasalarına göre suç sayılır. Filmler tanıtım amaçlı olduğundan yapımcı veya ona bağlı yayıncı şirketinin isteği doğrultusunda bize bilgi verilmesi halinde, isteği üzerine indirme linkleri kaldırılır. Bu kuralı ihlal eden internet kullanıcıları bu siteyi kullanamazlar. Kullanmalarından doğacak tüm sorunlardan ve kanun ihlallerinden Web sitemiz sorumlu tutulamaz. Lütfen bu materyallerin lisanslarını ve albümlerini satın alınız. Yasal çerçeve içerisinde kullanmaya özen gösteriniz. Dizi ve Filmlerin Hak ve Telif Sahipleri Lütfen aşağıdaki "İhbar/Şikayet/İletişim" deki Mail Adresinden ihbar Edebilirsiniz.En fazla 3 Gün içinde Siteden Kaldırılır...
İhbar/Şikayet/İletişim İçin Tıklayın